» » Eric Tagg - Dreamwalkin'

Eric Tagg - Dreamwalkin' mp3 flac

  • Performer: Eric Tagg
  • Title: Dreamwalkin'
  • Size MP3 ver: 2303 mb
  • Size FLAC ver: 1773 mb
  • Date of release: 1982
  • Style: Soft Rock
  • Rating: 4.8 of 5
  • Genre: Rock
Eric Tagg - Dreamwalkin' mp3 flac

Tracklist

In The Way3:21
Promises Promises4:33
Marianne (I Was Only Joking)4:10
Dreamwalkin'4:26
Just Another Dream3:54
No One There3:33
Crybaby4:19
A Bigger Love4:30
Maos De Afeto4:18
Marzipan4:07

Versions

CategoryArtistTitle (Format)LabelCategoryCountryYear
C25A0205Eric Tagg Dreamwalkin' ‎(LP, Album)AghartaC25A0205Japan1982
D25Y0166Eric Tagg Dreamwalkin' ‎(CD, Album)AghartaD25Y0166Japan1988
PCCY-01085Eric Tagg Dreamwalkin' ‎(CD, Album, RE)Canyon InternationalPCCY-01085Japan1997
PCCY-50073Eric Tagg Dreamwalkin' ‎(CD, Album, RE, RM, HQC)Pony CanyonPCCY-50073Japan2015

Album

1 No One There 2 Marianne I Was Only Joking 3 Promises Promises 4 Dreamwalkin' 5 In the Way 6 A Bigger Love 7 Crybaby 8 Just Another Dream 9 Marzipan Tagg - Dream Walkin' 1982. To favorites 0 Download album. Listen album. Disco Jazz Soul Jazz-Pop. Eric Tagg. Songs in album Eric Tagg - Dream Walkin' 1982. Eric Tagg - No One There. Eric Tagg - Marianne. Eric Tagg - Promises Promises. Eric Tagg - Dreamwalkin'. Eric Tagg - In The Way. Eric Tagg - A Bigger Love. Eric Tagg - Crybaby. Eric Tagg - Just Another Dream. Eric Tagg - Marzipan. Eric Tagg - Maos De Afeto. Discover all of this album's music connections, watch videos, listen to music, discuss and free to Eric Tagg Dreamwalkin' No One There, Marianne I Was Only Joking and more. 10 tracks 41:11. Released 1988. Dreamwalkin Tracklist. Album: Dreamwalkin'. Have This Want This. Album Info This Release. Visitor rating. Release date label labelcode medium genre submit corrections. Dream Walkin'. The song Is It You written by Bill Champlin, Eric Tagg, and Lee Ritenour was Lee Ritenour's only pop song, and was a minor pop hit, an amazing feat for a jazz guitarist. In this outing, Eric Tagg replicates those same sounds and brings together some superb musicians such as Lee Ritenour, Don Grusin, David Foster, Greg Mathison, Abraham Laboriel, Tom Scott, and Chuck Finley, not to mention Bill Champlin on backing vocals. The CD is excellent, well produced by Lee Ritenour and epidomizes the smooth jazz adult contemporary sound of Eric Tagg. Format Name. Old Merrytale Jazz-Band Meets Knut Kiesewetter Old Merrytale Jazz-Band Meets Knut Kiesewetter LP, Album. plus Shipping Costs. Record is shipped in 3 working days. Positive K Nightshift, Car Hoppers 12, Promo. Artist: Lee Ritenour, Eric Tagg, Song: Dreamwalking, Duration: 4:11, Bitrate: 320 kbps, Size: MB, File type: mp3. Lee Ritenour Tell Me Pretty Lies Tagg. download 4:29. Lee Ritenour Is It You Eric Tagg vocal. download 2:19

Performer

Eric Tagg Eric R. Tagg was born in Illinois . on January 9, 1953. After a combination of vacation and stolen luggage, Eric joined the Dutch band Beehive 1973-1974. In 1975, Eric released his first solo single A Fantasy cw Tell Tale Eyes and then, the full-length solo album Smiling Memories followed, which was completed with the super musicians including Lee Ritenour , Jeff Porcaro, Mike Porcaro and David Foster. In the same era, Eric was also a member of the band Rainbow Train 1975-1979. In 1977, his second albu read more. Eric Tagg born January 9, 1953 is an American musician. He was previously a member of Dutch music groups Beehive and Rainbow Train. He is also notable for being the songwriter and vocalist for many singles from musician Lee Ritenour. He is the younger brother of musician Larry Tagg. 1975 - A Fantasy. 1977 - Fancy Meeting You. 1982 - Keep It Alive, Tied Up. 1981 - Is It You. 1981 - Mr. 1982 - No One There. 1986 - Woman I Love. 1984 - Round The Corner. All Moods. Background Music. Cool & Cocky. Also Known As. Erik Tagg. Submit Corrections. Eric Tagg. Follow Artist. Overview . Eric Tagg Фото исполнителя Eric Tagg. All songs by Eric Tagg. Time For A Miracle. Jazz Soul Jazz-Pop. Smilin' Memories. Watch until the end to hear the final beat. Follow erictagg on IG. 27 December 2019 . myrRVMgg7aM&t 186s. Eric Tagg: American musician. The Voice. American musician. Самые новые твиты от Eric Tagg TaggEric: mc come to ft worth soon im a disabled vet and i grew up on ur shit. i know u can come do some classics and it world make my recovery epic. 1 No One There 2 Marianne I Was Only Joking 3 Promises Promises 4 Dreamwalkin' 5 In the Way 6 A Bigger Love 7 Crybaby 8 Just Another Dream 9 Marzipan Tagg born January 9, 1953 is an American musician

Video

Comments (6)

santa
That is one groovy record right here, absolutely love it! It has this blue eyed soul / city-pop ish vibe to it throughout that is very enjoyable (nice mix of rock, soul and funk). Some amazing session musicians are featured. highly recommend this one.
POFOD
foobar2000 1.3.17 / Dynamic Range Meter 1.1.1
log date: 2019-04-30 20:16:00

--------------------------------------------------------------------------------
Analyzed: Eric Tagg / Dreamwalkin' [JP 1988 CD]
--------------------------------------------------------------------------------

DR Peak RMS Duration Track
--------------------------------------------------------------------------------
DR14 -2.23 dB -19.19 dB 3:35 01-No One There
DR14 -3.43 dB -20.88 dB 4:13 02-Marianne (I Was Only Joking)
DR14 -0.57 dB -17.01 dB 4:35 03-Promises Promises
DR15 -3.00 dB -22.64 dB 4:28 04-Dreamwalkin'
DR15 -1.46 dB -19.73 dB 3:20 05-In The Way
DR15 -2.13 dB -19.87 dB 4:43 06-A Bigger Love
DR14 -2.67 dB -18.91 dB 4:11 07-Crybaby
DR14 -3.21 dB -21.11 dB 3:49 08-Just Another Dream
DR14 -3.47 dB -19.54 dB 4:10 09-Marzipan
DR12 -7.71 dB -23.05 dB 4:21 10-Maos De Afeto
--------------------------------------------------------------------------------

Number of tracks: 10
Official DR value: DR14

Samplerate: 44100 Hz
Channels: 2
Bits per sample: 16
Bitrate: 588 kbps
Codec: ALAC
================================================================================
Snowskin
foobar2000 1.3.17 / Dynamic Range Meter 1.1.1
log date: 2018-12-26 17:23:32

--------------------------------------------------------------------------------
Analyzed: Eric Tagg / Dreamwalkin' [JP 2015 CD]
--------------------------------------------------------------------------------

DR Peak RMS Duration Track
--------------------------------------------------------------------------------
DR10 -0.07 dB -12.21 dB 3:36 01-No One There
DR11 -0.07 dB -13.01 dB 4:13 02-Marianne (I Was Only Joking)
DR9 -0.07 dB -10.94 dB 4:35 03-Promises Promises
DR12 -0.07 dB -15.20 dB 4:29 04-Dreamwalkin'
DR10 -0.07 dB -12.43 dB 3:22 05-In The Way
DR10 -0.07 dB -12.40 dB 4:44 06-A Bigger Love
DR11 -0.07 dB -11.97 dB 4:11 07-Cry Baby
DR10 -0.07 dB -12.71 dB 3:50 08-Just Another Dream
DR10 -0.07 dB -12.20 dB 4:10 09-Marzipan
DR11 -0.37 dB -15.78 dB 4:24 10-Maos De Afeto
DR10 -0.07 dB -11.87 dB 4:49 11-Round The Corner
--------------------------------------------------------------------------------

Number of tracks: 11
Official DR value: DR10

Samplerate: 44100 Hz
Channels: 2
Bits per sample: 16
Bitrate: 958 kbps
Codec: ALAC
================================================================================
Dibei
This album is 100% quality! Eric Tagg does a brilliant job with his singing and the whole album sounds excellent! Tracks like “No One There”, “Promises Promises” and “Dreamwalkin” are top tunes from this album. Eric Tagg really does have top vocals and his voice sounds like gold. The songs are Jazzy, funky, smooth and amazing. He deserves a lot more recognition! A+++++++++!!!!
Querlaca
Such a fantastic album from Eric Tagg produced by Lee Ritenour. Picked up right where "Rit" left off by Lee Ritenour! The true successor, compared to the lackluster Rit/2! I agree with the previous poster, not a bad track on this album...with the exception of perhaps Promises, Promises. 5/5!
Karon
His best album for me with so many pearls (In the way, No one there, Marzipan). Not a duff track on this fantastic Westcoast album !

Related to Eric Tagg - Dreamwalkin':