» » Misery - Mystic

Misery - Mystic mp3 flac

  • Performer: Misery
  • Title: Mystic
  • Size MP3 ver: 2429 mb
  • Size FLAC ver: 2800 mb
  • Date of release: 1993
  • Style: Doom Metal, Death Metal
  • Rating: 4.9 of 5
  • Genre: Rock
Misery - Mystic mp3 flac

Tracklist

Aura1:37
Memories3:58
Mystic4:22
Salem4:08
Black Emblem3:15
Release4:29
Union3:09
Flavour Of Death5:08
Burning Alive4:15
Tormented Soul3:21

Versions

CategoryArtistTitle (Format)LabelCategoryCountryYear
END 031Misery Mystic ‎(CD, Album)Blackend RecordingEND 031Switzerland1993
LR-003Misery Mystic ‎(CD, Album, RE, Unofficial)Letargo RecordsLR-003Switzerland2013

Album

Year: 1993 Label: Blackend Records Country of origin: Switzerland Songs 1, 2, 6, 7, 8 by MiseryXytras Samael Aura created and played by Xytras All . Misery - Mystic 1993. To favorites 0 Download album. Listen album. Death Metal. Songs in album Misery - Mystic 1993. Misery - Black Emblem. Misery - Mystic. Misery - Tormented Soul. Misery - Union. Misery - Aura. Misery - Flavour Of Death. Misery - Burning Alive. Misery - Memories. Misery is the sixth studio album by Australian metalcore band The Amity Affliction. The album was released on 24 August 2018. It is the first album without drummer Ryan Burt, following his departure in February 2018. It is also the first album to feature Joel Birch performing clean vocals on some tracks on the album along with the album being a departure from the band's usual straight metalcore sound and instead included some electronic elements on top of the metalcore sound. It is the band's final. Listen free to Misery Mystic Black emblem, Mystic and more. 10 tracks 36:29. Do you know any background info about this album Start the wiki. There are multiple artists with this name: 1 Misery is a crust punk band formed in 1987 in Minneapolis, Minnesota, United States. For a city that was known for bands such a The Replacement read more. Band Name Misery CH. Album Name Mystic. Type Album. Released date 1993. Labels Blackend Recordings. Music StyleDeath Doom. Members owning this album7. MYSTIC MISERY. Лента с персональными рекомендациями и музыкальными новинками, радио, подборки на любой вкус, удобное управление своей коллекцией. loading lyrics. Tormented Soul. You can write one. Songs 1, 2, 6, 7, 8 by MiseryXytras Samael Aura created and played by Xytras. Recording information: recorded and mixed at Feeling's Studio, Switzerland. Identifiers: Matrix: END 031. Added by: AUTOPSY 666. Modified by: pentium. This album has an average beat per minute of 150 BPM slowestfastest tempos: 104200 BPM. Album starts at BPM, ends at 104BPM 104, with tempos within the 104-200BPM range. Try refreshing the page if dots are missing. Tracklist Mystic. Black Emblem. Mystic Angel. 1 month ago1 month ago. Feeling, Emotion . This album has been a real piece of work for me. I made this as a release for myself if anything else. HUGE thank you to my good friends, soberblu, sunburn66 and finally wtrflls for the amazing features on the songs Death Note, Don't You Know & Under Weather. SPOILERS AHEAD, READ AT YOUR OWN DISCRETION If you haven't played Mystic Messenger completely, you might read something that will reveal to you the complete story of the game. So please pay attention Acknowledgements: All images uploaded to this page belong to Chertiz, the developers of Mystic Messenger. Cheritz has also given us the Mystic Messenger Wiki their permission to upload their images onto the page

Performer

Listen to music from Misery like Children Of War, One More Day & more. Find the latest tracks, albums, and images from Misery. There are multiple artists with this name: 1 Misery is a crust punk band formed in 1987 in Minneapolis, Minnesota, United States. For a city that was known for bands such a The Replacements and Husker Du, this was a whole new take on the Minneapolis sound. Misery brought heavy, grinding, cru read more. Misery Music, Kingston upon Hull. Misery Made. Лента с персональными рекомендациями и музыкальными новинками, радио, подборки на любой вкус, удобное управление своей коллекцией. Мизери 1990 SoundTracks on IMDb: Memorable quotes and exchanges from movies, TV series and Music - Newcastle Kings. Misery Music. Исполнитель: Newcastle Kings. 2018 rock. Official Music Video by The Specters performing Misery. Misery, I don' t need your company I don't wanna waste another minute of my time Empathy mixed up with agony I don't wanna to believe that love is just a lie. No more sleep No nightmares We're bleeding Together now . Discuss the topic FULL Radio Playlist. the 33 . COP songs in the General subjects MISERY discussion. Full concept MODIFICATION of . Call of Pripyat that touches every game aspect including textures, sfx, music, weapons, A. items, weather, mutants, difficulty and much much more Forum Thread. Страна: США. Формат: FLAC. Death Cover PERFORMER Misery Index INDEX 01 43:01:40 TRACK 16 AUDIO TITLE Scene And Not Heard PERFORMER Misery Index INDEX 01 45:42:71 TRACK 17 AUDIO TITLE Hang'em High PERFORMER Misery Index INDEX 01 47:17:15 TRACK 18 AUDIO TITLE Love It Or Leave It PERFORMER Misery Index INDEX 01 48:19:70 TRACK 19 AUDIO. Последние твиты от Music or Misery musicor misery. We post about your favorite bands. you me at sixMemphis may fireAttilaof mice and menlike moths to flamesIssuesAsking AlexandriaBuried in Verona. Music or Misery ретвитнула. Kyerra Simmons blackh1ppi3 11 июн. 2014 г. Stream Tracks and Playlists from MISERY on your desktop or mobile device. Let your audience know what to hear first. Learn more about Pro. sad type beat lil peep xxxtentacion free beats trap emotional lofi. ƃɹnquǝɥʇoƃ, Sweden

Video


Related to Misery - Mystic: